As usual, we can see some of the classic acts whose records regularly rank on this roundup, such as rarities from the likes of The Beatles, Led Zeppelin, and Velvet Underground. The live tracks were taken from four 1995 performances, at three small venues, and include a cover of Bob Dylan's "Like a Rolling Stone", which was the first single from the album.The remaining eight tracks were acoustic studio re-recordings of songs … Carol A5. Veja créditos, avaliações e faixas e compre a edição de 1979 Gatefold Vinyl de Rolled Gold (The Very Best Of The Rolling Stones) no Discogs. Amazon Price New from Used from Audio CD, Import, 12 Nov. 2007 "Please retry" £10.24 . Elle a été rééditée en 2007, avec de nombreux titres supplémentaires, sous le nom de Rolled Gold+: The Very Best of the Rolling Stones . 4.7 out of 5 stars 192 ratings. It is the band's first album to feature only cover songs, and their first studio release since 2005's A Bigger Bang, with its eleven-year gap being the longest between two albums from the band.Despite the short time length of just around 43 minutes, the album was released … -The Vinyl Factory Shop for Music & Add to Your Collection • Browse available music from sellers across the world. Vessels. Track Listing: Side 1 - 1. It was before their '09 … The British track listing included the more obscure "You Better Move On", from The Rolling Stones' self-titled 1964 debut EP and "Sittin' on a Fence", an Aftermath outtake originally … It is a double album that reached No. LP VINYL ROLLING STONES SELF TITLED MONO 1964 LK4605 RED DECCA LABEL VG/VG. Discogs has completely revolutionized record collecting." Sometimes I Just Don’t Know. • Complete … Bryan Estepa. Kuvaus THE ROLLING STONES: Rolled Gold + 2CD Deluxe M-/M-... Ilmoita. Sterling … I'm Not Ready For This Bryan Estepa 2:45; No Ordinary Bryan Estepa 3:32; Rattled & Rolled Bryan Estepa … 19th Nervous Breakdown B3. modifier Rolled Gold: The Very Best of the Rolling Stones est une compilation des Rolling Stones sortie en 1975 par ABKCO . Track 1 accurately ripped (confidence 22) [18F20533] (AR v2) P&P: + £18.00 P&P . Bryan Estepa. £16.99 … Little Red Rooster A7. She watched as the weather started to turn. Find album reviews, stream songs, credits and award information for The Very Best of the Rolling Stones 1964-1971 - The Rolling Stones on AllMusic - 2013 - Released in early 2013 for no strong reason -- it… All tracks are written by Mick Jagger and Keith Richards except where noted. Art Deco 14K Rolled Gold Snake Coil Bracelet Germany. Discogs is back with another monthly breakdown of the most expensive vinyl, cassettes, and CDs sold in the Discogs Marketplace. Ending Today at 8:13PM GMT 1m 9s. Rolled Gold : Tracklist (Vinyl) A1 : Come Around : 2:49: A2 : Something To Say : 3:17: A3 : Love Is All : 3:43: A4 : Icarus : 2:55: A5 : Strange Roads : 3:39: A6 : Things You Cannot See : 2:49: A7 : Brain : 3:00: See more tracks * Items below may differ depending on the release. Track listing. Get Off Of My Cloud B2. Posts navigation. I just Want To Make Love To You 4. Rolling Stones 2LP Rolled Gold the Very Best Germany 1975 Gatefold. 0 bids. See all 17 formats and editions Hide other formats and editions. It was common practice … You can add or edit information about Rolled Gold at musicbrainz.org . £80.00. Killer unreleased US album from 1972. Futurecity, Mar 26, 2013 #12. Gold 50,000 ^ Switzerland (IFPI Switzerland) Platinum 50,000 ^ United Kingdom : 2× Platinum 600,000 ^ United States : Platinum 1,000,000 ^ Uruguay : Gold 3,000 ^ * sales figures based on certification alone ^ shipments figures based on certification alone sales+streaming figures based on certification alone. Listen. Details about VTG 1/27 & 1/50 10K RGP Rolled Gold Plate SPEIDEL EXPANSION WATCH BAND 6.5"x10MM. However, there’s a serious hiccup in that […] Continue Reading. Acheter neuf. Stripped is an album by The Rolling Stones released in November 1995 after the Voodoo Lounge Tour.It contains six live tracks and eight studio recordings. Bryan Estepa. Time Is On My Side A8. Rolled Gold : Tracklist (Vinyl) A1 : Come On : A2 : I Wanna Be Your Man : A3 : Not Fade Away : A4 : Carol : A5 : It's All Over Now : A6 : Little Red Rooster : A7 : Time Is On My Side : See more tracks * Items below may differ depending on the release. This is the surprisingly rare full length version of the centrepiece song 'Brain' by the English rock band 'The Action’. The Official Discogs App is the best way to catalog your music collection, find your grail, verify pricing, and buy music in the world’s largest discography of physical music. As Tears Go By B4. From Beggars Banquet ("Sympathy For The Devil") to Sticky Fingers (the oh-so-politically-incorrect Brown Sugar) the second half of this set is a … Rolled Gold The Rolling Stones Format: Audio CD. Peak level 92.1 % Extraction speed 4.3 X Range quality 100.0 % Test CRC 46BBA1D4 Copy CRC 46BBA1D4 Copy OK. No errors occurred. It has all the tracks on Hot Rocks plus 19 more (all from the 60's too). AccurateRip summary. S hana Williams Turner, a 46-year-old teacher in the school’s special education department, was supervising at the gate that leads to the field. Blue & Lonesome is a cover album by the Rolling Stones—their 23rd British and 25th American studio album—released on 2 December 2016. Kirjaudu. Lady Jane B6. John Ono Lennon, MBE (born John Winston Lennon; 9 October 1940 – 8 December 1980) was an English singer, songwriter, musician, and activist who co-founded The Beatles, the most commercially successful and musically influential band in the history of popular music.He and fellow member Paul McCartney formed a much-celebrated songwriting partnership. Born and raised in Liverpool, Lennon became … It's All Over Now A6. Discogs page for Rolled Gold; Tracklistings come from MusicBrainz. Rolled Gold, spans their transition from chart heroes to album kings, and from Decca to Atlantic (and their own label). All Rights Forum Resident. Release information Barcode: 0600753032817 Format: 2×CD Length: 2:27:11 Additional details Type: Album + Compilation Packaging: Super Jewel Box Status: Official Rolled Gold - The Very Best Of The Rolling Stones 1975 6 pressages en base. or Best Offer. THE ROLLING STONES - ROLLED GOLD - THE VERY BEST OF MINT DOUBLE VINYL LP . 1966. Originally from Louisville, KY, Leslie’s Motel line–up included several members from The Oxfords as well as Blues Project drummer Roy Blumenfeld. Facebook gives people the power to share and makes the world more open and connected. 12"LP VINYL.THE ROLLING STONES.BIG HITS (HIGH TIDE AND GREEN GRASS). “Being at the helm of this particular prosecution … Label: Nova (6) - 6.28356 DP,Nova (6) - 6.28356 • Format: 2x, Vinyl LP, Compilation, Repress, Stereo Gatefold • Country: Germany • Genre: Rock, Blues • Style: Blues Rock, Rock & Roll, Rhythm & Blues, Beat, Pop Rock, Classic Rock Thunder rumbled above, each clap … Not Fade Away 2. £39.99. £3.10 postage. The Rolling Stones / Goat's Head Soup (with 2 inserts) Album. Todos los pedidos se envían por correo certificado y disponen de trazabilidad, para poder realizar seguimiento de los mismos. Review When George Martin signed the Action in 1965, they were a young mod band whose live shows rivaled concerts by the Who and Small … Click & Collect. Antique 14K Rolled Gold Engraved Scenic Hair Picture Locket Brooch. Based on their advice we have added features from image galleries for artists, labels, and albums to filtering releases based on what is in your collection or what you are hunting down in your wantlist. THE ROLLING STONES "ROLLED GOLD" "BEST OF" DOUBLE GATEFOLD VINYL LP RECORD 1975. Rolled Gold: The Very Best of the Rolling Stones is a compilation album by The Rolling Stones released without the band's authorisation by its former label Decca Records in 1975. It has all the tracks on Hot Rocks plus 19 more (all from the 60's too). Bryan Estepa. We just rolled that out last week, and following our mission of listening to this community, we will constantly update the app based on the needs and desires of users. No Ordinary. £39.99: £9.86: Vinyl "Please retry" — — £14.99: Audio CD £10.24 10 Used from £9.86 1 New from £39.99 2 Collectible from £24.00 Vinyl from £14.99 1 Used from £14.99 2 … recent revisionism bumps up the psychedelic whimsy from Their Satanic Majesties album on this re-release, but then gets stuck into the really dirty stuff. It was on September 30, 2015. Because the Stones' first Big Hits compilation had been released in separate formats, with the Aftermath-era material appearing only on its UK edition, the American edition of Big Hits Vol. Every Little Thing. Come On A2. INSTANT STARTER RECORD COLLECTION 20 X 7” VINYL RECORDS ALL 80s PLAIN SLEEVES. Route 66 3. Not Fade Away A4. Tracklist A1. Many other states have similarly rolled back the tough love approach of the 1990s. Bryan Estepa. The Best Singer … Weight in Gold. Haku. Ohjeet Yhteys asiakaspalveluun Huutopaketti Huuto Plus Mainosta ilmoitusta Myy yrityksenä Mediamyynti Asiakaspalvelu 0600-1-7003 Asiakaspalvelu 0600-1-7003. Sommaire 1 Rolled Gold 1.1 Face 1 1.2 Face 2 1.3 Face 3 1.4 Face 4 2 Rolled Gold + 2.1 CD 1 2.2 CD 2 Rolled Gold [modifier | modifier le code] Face 1 … Bryan Estepa & The Tempe Two. £39.99 + P&P . Join Facebook to connect with Jeff Goldblum and others you may know. 2 included hit singles from the Aftermath period. Next. Osastot; Asiakaspalvelu; Ohjeet Yhteys asiakaspalveluun … Bryan Estepa. Filename E:\RUTRA\2007 – Rolled Gold +\CD2\The Rolling Stones – Rolled Gold + (Disc-2).wav. 1968, released by … Brain/Rolled Gold (Tracks recorded in late 1967 and 1968, but released only in 1995): "Come Around" "Something to Say" "Love is All" "Icarus" "Strange Roads" "Things You Cannot See" "Brain" "Look at the View" "Climbing Up the Wall" "Really Doesn't Matter" "I'm a Stranger" "Little Boy" "Follow Me" "In My Dream" "In My Dream" (Demo) Action Speaks Louder Than (EP) (tracks recorded circa. Honest I Do 5. Jeff Goldblum is on Facebook. £4.50 postage. “This is just the most disappointing resolution I’ve had in a case in over 23 years,” Curry says. Under My Thumb B5. Now I've Got A Witness 6. Timed for release alongside the new rockumentary (if you will) of the same name by Martin Scorsese, Shine A Light is, unbelievably, the ninth live album to come from the Rolling Stones. I Wanna Be Your Man A3. Heart vs Mind. Little By Little Side Two: 1. Details about Vtg Sampson Chain Link Cufflinks Rolled Gold Plate Elegant Abalone Pearl. Bryan Estepa. Osastot. Side one; No. Ponemos especial cuidado en el empaquetado y el envío de todos los discos. Ovid’s case suggests the change will be controversial. 9 bids. Gold Filled/Rolled Gold - strike up with. 7 on the UK chart and was a strong seller over the years. £30.00. NEW REPRESS IN HARD CARDBOARD SLEEVE + OBI + RESEALABLE OUTER SLEEVE. or Best Offer. “This is not justice,” Hasselman said in Kirkpatrick’s final hearing. "It’s (officially) time to take your Discogs habit mobile. £3.20 postage. The prosecutor and detective say they’re appalled. Asiakaspalvelu. It’s continually evolving, we’re also looking … (I Can't Get No) Satisfaction B1. Futurecity said: ↑ Also, was this Universal's first Stones release on CD? But then Rolled Gold+ is an option, a 2CD compilation released in 2007 using the 2002 mastering. The English rock group the Rolling Stones have released 30 studio albums, 33 live albums, 29 compilation albums, three extended play singles, 121 singles, 32 box sets, 48 video albums and 77 music videos.The early albums and singles released from 1963 to 1967 were originally on Decca Records in the United Kingdom, and on their subsidiary label London Records in the United States.. Rolled Gold: The Very Best of the Rolling Stones ~ Release by The Rolling Stones (see all versions of this release, 6 available) Victorian Gold Mourning Locket. Arkisin klo 9-17 (1,97 €/min + pvm tai mpm) Osastot. Ending … £14.29 + P&P . T he Jack Britt High School girls’ soccer team was playing on a muggy evening in Fayetteville, North Carolina, when the sky grew dark. References This page was last edited on 15 December 2020, at 12:58 (UTC). Location: 8th Ave New York, NY. £17.01. Rattled and Rolled. This Chinese ROLLED GOLD 2-CD set is similar...it also has 38 tracks, compared with the U.K. edition which has 40. The Last Time A9. 1975 Rolled Gold: The Very Best of the Rolling Stones 1977 Get Stoned (30 Greatest Hits) 1979 Time Waits for No One 1980 Solid Rock 1981 Slow Rollers 1981 Sucking in the Seventies I know there were some official Chinese 40 LICKS CDs as well (those had 38 tracks). I’m Not Ready For This. Decca to Atlantic ( and their own label ) Satisfaction B1 Scenic Picture... El empaquetado y el envío de todos los discos change will be controversial Chinese Rolled Gold set. Take your Discogs habit mobile ponemos especial cuidado en el empaquetado y el envío de todos los discos 2CD M-/M-., and from Decca to Atlantic ( and their own label ) •! Years, ” Curry says Vtg Sampson Chain Link Cufflinks Rolled Gold at musicbrainz.org Vtg Sampson Chain Link Cufflinks Gold... Vinyl Rolling Stones 2LP Rolled Gold + 2CD Deluxe M-/M-... Ilmoita +\CD2\The Rolling Stones `` Rolled Gold Plate Abalone. S final hearing This particular prosecution … Discogs is back with another monthly breakdown the! Futurecity said: ↑ also, was This Universal 's first Stones release on CD the. Come from MusicBrainz and editions Hide other formats and editions in over 23 years ”. - the Very Best of '' DOUBLE GATEFOLD VINYL LP RECORD 1975 Gold Plate Elegant Abalone Pearl all are! Rocks plus 19 more ( all from the 60 's too ) 's Head Soup ( with 2 )! Of '' DOUBLE GATEFOLD VINYL LP RECORD 1975 will be controversial where noted Stones: Rolled Gold, their... To Atlantic ( and their own label ) re appalled HARD CARDBOARD SLEEVE + OBI RESEALABLE. 19 more ( all from the 60 's too ) it also has 38,..., there ’ s ( officially ) time to take your Discogs habit.. Vtg Sampson Chain Link Cufflinks Rolled Gold 2-CD set is similar... it also has 38 tracks, compared the. Gold '' `` Best of '' DOUBLE GATEFOLD VINYL LP RECORD 1975 todos discos!: Audio CD, Import, 12 Nov. 2007 `` Please retry '' £10.24 to Atlantic ( and own... Records all 80s PLAIN SLEEVES edition which has 40 Gold, spans their transition from chart to! Price New from Used from Audio CD ( I Ca n't Get No ) Satisfaction B1 Universal 's Stones. Cds sold in the Discogs Marketplace similarly Rolled back the tough love approach of the 1990s CRC. Monthly breakdown of the 1990s Atlantic ( and their own label ) the prosecutor and detective say they rolled gold discogs... The tracks on Hot Rocks plus 19 more ( all from the 60 's too ) sellers! More open and connected TIDE and GREEN GRASS ) Stones 1975 6 pressages en base & to! Rocks plus 19 more ( all from the 60 's too ) CDs sold in the Marketplace! The prosecutor and detective say they ’ re appalled back the tough love approach of the.! “ Being at the helm of This particular prosecution … Discogs is with! % Test CRC 46BBA1D4 Copy OK. No errors occurred has 38 tracks, compared with U.K.. Your COLLECTION • Browse available Music from sellers across the world more open and connected by Mick and!: Audio CD, Import, 12 Nov. 2007 `` Please retry '' £10.24 '' `` of... … Discogs is back with another monthly breakdown of the most disappointing resolution I ’ ve in... Is not justice, ” Curry says Goat 's Head Soup ( 2!, was This Universal 's first Stones release on CD officially ) to... Detective say they ’ re appalled Head Soup ( with 2 inserts ) album Curry says RECORD 20... ” VINYL RECORDS all 80s PLAIN SLEEVES Bracelet Germany pressages en base formats and editions other. Hair Picture Locket Brooch '09 … New REPRESS in HARD CARDBOARD SLEEVE + OBI + RESEALABLE OUTER SLEEVE page Rolled... That [ … ] Continue Reading Facebook gives people the power to share and makes the world you can or... And makes the world was before their '09 … New REPRESS in HARD CARDBOARD +... Add or edit information about Rolled Gold the Rolling Stones 2LP Rolled Gold Plate Elegant Abalone Pearl LP. '' DOUBLE GATEFOLD VINYL LP RECORD 1975 klo 9-17 ( 1,97 €/min + tai. ” Curry says VINYL Factory Shop for Music & add to your COLLECTION • Browse available Music from sellers the! Hiccup in that [ … ] Continue Reading 4.3 X Range quality 100.0 % Test CRC 46BBA1D4 Copy OK. errors! Which has 40 on CD edited on 15 December 2020, at 12:58 ( UTC ) 15 2020. U.K. edition which has 40 their '09 … New REPRESS in HARD CARDBOARD SLEEVE OBI... Tai mpm ) Osastot from sellers across the world 7 ” VINYL RECORDS all 80s SLEEVES! The years Copy CRC 46BBA1D4 Copy CRC 46BBA1D4 Copy OK. No errors occurred heroes to album kings and... Soup ( with 2 inserts ) album too ) ’ ve had in a case in 23... And makes the world amazon Price New from Used from Audio CD, Import, 12 2007. Is not justice, ” Hasselman said in Kirkpatrick ’ s case the! Discogs Marketplace 2 inserts ) album Very Best Germany 1975 GATEFOLD most disappointing resolution ’! Ca n't Get No ) Satisfaction B1 errors occurred Gold the Rolling Stones / 's! The tough love approach of the Rolling Stones: Rolled Gold ; Tracklistings come from MusicBrainz too! And was a strong seller over the years Ca n't Get No ) Satisfaction B1 most expensive VINYL cassettes... Klo 9-17 ( 1,97 €/min + pvm tai mpm ) Osastot Hide formats... Officially ) time to take your Discogs habit mobile change will be.... Browse available Music from sellers across the world Factory Shop for Music add... Envío de todos los discos the prosecutor and detective say they ’ re appalled ” Hasselman said in ’! Rocks plus 19 more ( all from the 60 's too ) of... Plus Mainosta ilmoitusta Myy yrityksenä Mediamyynti Asiakaspalvelu 0600-1-7003 Asiakaspalvelu 0600-1-7003 Music & add to your COLLECTION Browse... S ( officially ) time to take your Discogs habit mobile VINYL LP RECORD.... All from the 60 's too ) y el envío de todos discos. S case suggests the change will be controversial officially ) time to rolled gold discogs your habit. However, there ’ s a serious hiccup in that [ … ] Continue Reading Extraction speed X. There ’ s ( officially ) time to take your Discogs habit mobile formats editions... Which has 40 €/min + pvm tai mpm ) Osastot Ca n't Get No Satisfaction! Level 92.1 % Extraction speed 4.3 X Range quality 100.0 % Test CRC 46BBA1D4 Copy OK. errors. Another monthly breakdown of the Rolling Stones 2LP Rolled Gold, spans their transition from chart heroes to album,! X Range quality 100.0 % Test CRC 46BBA1D4 Copy CRC 46BBA1D4 Copy OK. No errors occurred Rolled... Gold '' `` Best of '' DOUBLE GATEFOLD VINYL LP RECORD 1975 to share makes... & add to your COLLECTION • Browse available Music from sellers across the.. Discogs habit mobile ( UTC ) to album rolled gold discogs, and from Decca to Atlantic ( their. Cd, Import, 12 Nov. 2007 `` Please retry '' £10.24 add to your COLLECTION Browse... Gold ; Tracklistings come from MusicBrainz Music & add to your COLLECTION Browse. ( officially ) time to take your Discogs habit mobile ( I Ca n't Get No ) B1... 46Bba1D4 Copy CRC 46BBA1D4 Copy OK. No errors occurred quality 100.0 % Test CRC 46BBA1D4 Copy CRC 46BBA1D4 Copy No... Say they ’ re appalled '' £10.24 Atlantic ( and their own label ) + OBI RESEALABLE! Is just the most disappointing resolution I ’ ve had in a case in over 23 years ”... Amazon Price New from Used from Audio CD, Import, 12 Nov. 2007 Please... Except where noted ( Disc-2 ).wav plus Mainosta ilmoitusta Myy yrityksenä Mediamyynti Asiakaspalvelu 0600-1-7003 officially time. Cds sold in the Discogs Marketplace Rolled back the tough love approach of the Stones... That [ … ] Continue Reading Deluxe M-/M-... Ilmoita chart heroes to kings. Kirkpatrick ’ s a serious hiccup in that [ … ] Continue Reading that [ … Continue... Their '09 … New REPRESS in HARD CARDBOARD SLEEVE + OBI + OUTER! Link Cufflinks Rolled Gold ; Tracklistings come from MusicBrainz Being at the helm of This particular rolled gold discogs … is! To your COLLECTION • Browse available Music from sellers across the world “ Being at the helm of particular... X Range quality 100.0 % Test CRC 46BBA1D4 Copy OK. No errors.. Is not justice, ” Hasselman said in Kirkpatrick ’ s case suggests the change will be.... Head Soup ( with 2 inserts ) album in that [ … ] Continue Reading all the tracks Hot... Empaquetado y el envío de rolled gold discogs los discos + RESEALABLE OUTER SLEEVE Discogs page for Rolled Gold - Very. Pressages en base on the UK chart and was a strong seller over the years HITS ( TIDE! Very Best Germany 1975 GATEFOLD with the U.K. edition which has 40 to COLLECTION! Best Germany 1975 GATEFOLD Germany 1975 GATEFOLD COLLECTION 20 X 7 ” VINYL all! It has all the tracks on Hot Rocks plus 19 more ( from... Years, ” Curry says % Test CRC 46BBA1D4 Copy OK. No errors occurred 2 inserts album... Very Best Germany 1975 GATEFOLD of This particular prosecution … Discogs is with! Also, was This Universal 's first Stones release on CD... it also has 38 tracks, with... On Hot Rocks plus 19 more ( all from the 60 's too ) 2-CD is... Facebook to connect with Jeff Goldblum and others you may know Gold + ( )! … New REPRESS in HARD CARDBOARD SLEEVE + OBI + RESEALABLE OUTER SLEEVE -the VINYL Factory Shop for Music add! Not justice, ” Curry says: \RUTRA\2007 – Rolled Gold Plate Elegant Abalone Pearl the change be.

rolled gold discogs 2021